Annuaire Telechargement

Dernières actualités du site :

04/07 - Changement de nom de domaine New!                       12/11 - AVIS IMPORTANT A NOS ADHERENTS
30/07 - Demandes de titres et liens bonus                      30/07 - Gestion des problèmes et activités du site
21/07 - Attention, illustration à lire !!!

Trier par Genre/Annee

Filtrer par : Genres et Annee

Annee de sortie :

Action
Animation
Arts Martiaux
Aventure
Biographies
Comedie dramatique
Comedie musicale
Comedie
Divers
Documentaire
Drame
Epouvante-horreur
Espionnage
Famille
Fantastique
Guerre
Historique
Musical
Peplum
Policier
Romance
Science fiction
Thriller
Western

Calendrier

«    August 2019    »
MonTueWedThuFriSatSun
 1234
567891011
12131415161718
19202122232425
262728293031 

Membre


Partenaires

Boncoin-annonce
iron-iptv

Films
Mode d'affichage                    
Trier par:                     Plus récents en premier








Note minimal















































Réinitialiser les filtres





.

Let’s Dance
Qualité HDLight 1080p | FRENCH
Let’s Dance







Origine : France
Réalisation : Ladislas Chollat
Durée : 1h40
Acteur(s) : Rayane Bensetti, Alexia Giordano, Guillaume De Tonquédec
Genre : Comédie dramatique,
Date de sortie : 2019-03-27
Distributeur : Pathé
Titre original : Let’s Dance
Critiques Spectateurs : 3.7
Bande annonce :Cliquez ici pour visualiser la bande annonce



Joseph, danseur passionné de hip-hop, refuse d'entrer dans l'entreprise de son père pour tenter sa chance à Paris. Avec sa copine Emma et son meilleur ami Karim, il intègre le crew parisien de Youri, un célèbre breaker, pour tenter de gagner un concours international de hip-hop. Mais le jour des sélections, rien ne se passe comme prévu...

NFO
General
Unique ID                                : 234594721709508367199419850434943807359 (0xB07D4CC8720230DDB98A42DC8BBA6F7F)
Complete name                            : G:\Video\LstD41080x265-DEUXIO.Zone-Telechargement.Net.mkv.mkv
Format                                   : Matroska
Format version                           : Version 2
File size                                : 1.34 GiB
Duration                                 : 1 h 48 min
Overall bit rate                         : 1 765 kb/s
Movie name                               : dance x265
Encoded date                             : UTC 2019-08-03 07:40:33
Writing application                      : DVDFab 10.0.7.4
Writing library                          : libebml v1.3.4 + libmatroska v1.4.5
 
Video
ID                                       : 1
Format                                   : HEVC
Format/Info                              : High Efficiency Video Coding
Format profile                           : [email protected]@High
Codec ID                                 : V_MPEGH/ISO/HEVC
Duration                                 : 1 h 48 min
Bit rate                                 : 1 380 kb/s
Width                                    : 1 912 pixels
Height                                   : 800 pixels
Display aspect ratio                     : 2.40:1
Frame rate mode                          : Constant
Frame rate                               : 24.000 FPS
Color space                              : YUV
Chroma subsampling                       : 4:2:0
Bit depth                                : 8 bits
Bits/(Pixel*Frame)                       : 0.038
Stream size                              : 1.05 GiB (78%)
Default                                  : Yes
Forced                                   : No
Color range                              : Limited
Color primaries                          : BT.709
Transfer characteristics                 : BT.709
Matrix coefficients                      : BT.709
 
Audio
ID                                       : 2
Format                                   : AC-3
Format/Info                              : Audio Coding 3
Commercial name                          : Dolby Digital
Codec ID                                 : A_AC3
Duration                                 : 1 h 48 min
Bit rate mode                            : Constant
Bit rate                                 : 384 kb/s
Channel(s)                               : 6 channels
Channel layout                           : L R C LFE Ls Rs
Sampling rate                            : 48.0 kHz
Frame rate                               : 31.250 FPS (1536 SPF)
Bit depth                                : 16 bits
Compression mode                         : Lossy
Stream size                              : 299 MiB (22%)
Language                                 : French
Service kind                             : Complete Main
Default                                  : Yes
Forced                                   : No
 
Menu
00:00:00.000                             : en:Chapitre 01
00:10:00.000                             : en:Chapitre 02
00:20:00.000                             : en:Chapitre 03
00:30:00.000                             : en:Chapitre 04
00:40:00.000                             : en:Chapitre 05
00:50:00.000                             : en:Chapitre 06
01:00:00.000                             : en:Chapitre 07
01:10:00.000                             : en:Chapitre 08
01:20:00.000                             : en:Chapitre 09
01:30:00.000                             : en:Chapitre 10





Mot De Passe :

annuaire-telechargement.cc








Publié : 3-08-2019, 21:11
Être notifié d'une mise à jour sur l'article


Commentaires:



Information
Users of Visiteurs are not allowed to comment this publication.

Annuaire Telechargement (Annuaire Telechargement) Télécharger Gratuitement des Films, Séries, Jeux, Musiques, Blu-Ray sur UpToBox 1fichier uplea ..
Annuaire-Telechargement.com n'heberge aucun fichier. La loi francaise vous autorise a telecharger un fichier seulement si vous en possedez l'original. Ni Annuaire-Telechargement.com, ni nos hebergeurs, ni personne ne pourront etres tenu responsables d'une mauvaise utilisation de ce site.